Chuukan Kanriroku Tonegawa | --Lektor PL/Dubbing | Himegoto

How to Get Away with Murder S04E10

Posted By: Tavaz
720p (HD) / HDTV IMDb
How to Get Away with Murder S04E10

How to Get Away with Murder S04E10
HDTV | MKV | 1280x720 | German | H264 @ 2048 kbps | AC-3 @ 384 kbps | 41 min 10 s | 731 MiB
Genre: Krimi, Drama, Mystery

Annalise Keating ist eine brilliante, charismatische und fesselnde Professorin, die den Kurs „How to Get Away with Murder“ anbietet. Doch die Studenten wissen zu Beginn nicht, dass sie das Erlernte schon bald in der Realität anwenden müssen …

How.to.Get.Away.with.Murder.S04E10.GERMAN.720p.HDTV.x264-ACED.mkv (730.8 MB)
how.to.get.away.with.murder.s04e10.german.720p.hdtv.x264-aced.sample.mkv (17.9 MB)



General
Unique ID : 317853616764125255602901632245715247727 (0xEF20613D92B86F69735288E87B6D226F)
Complete name : ./How.to.Get.Away.with.Murder.S04E10.GERMAN.720p.HDTV.x264-ACED.mkv
Format : Matroska
Format version : Version 4 / Version 2
File size : 731 MiB
Duration : 41 min 10 s
Overall bit rate : 2 481 kb/s
Encoded date : UTC 2018-06-12 07:01:52
Writing application : mkvmerge v23.0.0 ('The Bride Said No') 64-bit
Writing library : libebml v1.3.6 + libmatroska v1.4.9

Video
ID : 1
Format : AVC
Format/Info : Advanced Video Codec
Format profile : [email protected]
Format settings : CABAC / 5 Ref Frames
Format settings, CABAC : Yes
Format settings, RefFrames : 5 frames
Codec ID : V_MPEG4/ISO/AVC
Duration : 41 min 10 s
Bit rate : 2 048 kb/s
Width : 1 280 pixels
Height : 720 pixels
Display aspect ratio : 16:9
Frame rate mode : Constant
Frame rate : 25.000 FPS
Color space : YUV
Chroma subsampling : 4:2:0
Bit depth : 8 bits
Scan type : Progressive
Bits/(Pixel*Frame) : 0.089
Stream size : 603 MiB (83%)
Writing library : x264 core 155 r2901 7d0ff22
Encoding settings : cabac=1 / ref=5 / deblock=1:-3:-3 / analyse=0x3:0x113 / me=umh / subme=9 / psy=1 / psy_rd=1.00:0.00 / mixed_ref=1 / me_range=16 / chroma_me=1 / trellis=2 / 8x8dct=1 / cqm=0 / deadzone=21,11 / fast_pskip=0 / chroma_qp_offset=-2 / threads=12 / lookahead_threads=1 / sliced_threads=0 / nr=0 / decimate=1 / interlaced=0 / bluray_compat=0 / constrained_intra=0 / bframes=3 / b_pyramid=2 / b_adapt=2 / b_bias=0 / direct=3 / weightb=1 / open_gop=0 / weightp=2 / keyint=250 / keyint_min=25 / scenecut=40 / intra_refresh=0 / rc_lookahead=50 / rc=crf / mbtree=1 / crf=18.0 / qcomp=0.60 / qpmin=0 / qpmax=69 / qpstep=4 / ip_ratio=1.40 / aq=1:1.00
Language : English
Default : Yes
Forced : No

Audio
ID : 2
Format : AC-3
Format/Info : Audio Coding 3
Format settings, Endianness : Big
Codec ID : A_AC3
Duration : 41 min 10 s
Bit rate mode : Constant
Bit rate : 384 kb/s
Channel(s) : 6 channels
Channel positions : Front: L C R, Side: L R, LFE
Sampling rate : 48.0 kHz
Frame rate : 31.250 FPS (1536 SPF)
Bit depth : 16 bits
Compression mode : Lossy
Stream size : 113 MiB (15%)
Language : German
Service kind : Complete Main
Default : Yes
Forced : No





How to Get Away with Murder S04E10


How to Get Away with Murder S04E10


How to Get Away with Murder S04E10


How to Get Away with Murder S04E10


How to Get Away with Murder S04E10

All episodes